skip to main | skip to sidebar

Monday, 12 November 2012

[Thái Cực Quyền] Tai Chi Zero/太極之零開始(2012) WebRip x264 720p AAC XLMV











太極之零開始 Tai Ji 1: Cong Ling Kai Shi Tai Chi Zero 2012 WebRip x264 720p AAC XLMV:

Chinese Posters:

English Posters:

Links:


Code:


http://www.imdb.com/title/tt1981080

http://asianwiki.com/Tai_Chi_0

http://en.wikipedia.org/wiki/Tai_Chi_0

http://chinesemov.com/2012/Taichi.html


Profile:

Title English: Tai Chi 0 or Tai Chi Zero

Title PinYin: Tai Ji 1: Cong Ling Kai Shi

Title Chinese: 太極之零開始

Genre: Action, Adventure, Comedy, Fantasy, Martial Arts, Adventure

Director: Stephen Fung

Writer: Stephen Fung

Producers: Zhonglei Wang, Zhongjun Wang, Kuo-fu Chen, Dajun Zhang, Daniel Wu, Stephen Fung

Cinematographers: Lai Yiu Fai, Peter Ngor, Du Jie

World Premiere: August 29, 2012 (Venice Film Festival)

Release Dates: September 27, 2012 (China), October 25, 2012 (Thailand), October 26, 2012 (North America)

Running Time: 98 min

Country: China

Language: Mandarin

Budget: 220 million yuan (together with Tai Chi Hero)

Casts:

Yuan Xiaochao. .. The Freak

Tony Leung Ka-Fai. .. The Master

Eddie Peng. .. The Villian

Angela Baby. .. The Beauty

William Feng. .. The Rising Son

Nikki Hsieh. .. The Silent Wife

Shu Qi. .. Mother Yang

Daniel Wu. .. The Crazy Monk

Stanley Fung

Bruce Leung

Fung Hak-On

Chen Sicheng

Xiong Naijin

Xiong Xin-Xin

Mickey Yuan

Stephen Fung

Patrick Tse

Yuen Biao

Andrew Lau

Jimmy Wang



Plot:



Yang Luchan was born with a horn that protrudes from his forehead. The horn gives the young boy great powers, but also the ridicule from other children. Yang's mother pushes him to learn martial arts which he does. Yang Luchan travels to a legendary village to learn Tai Chi from Master Chen. Upon arrival at the village Yang Luchan is challenged to many fights and defeated by everyone, including a girl named Yuniang. Yuniang is also Master Chen's daughter. Yang Luchan devotes himself to Tai Chai after his humiliating defeat. Meanwhile, a railroad construction project threatens the village's existence.



Film Festivals:


2012 (69th) Venice Film Festival - August 29-September 8, 2012 - Out of Competition

2012 (37th) Toronto International Film Festival - September 6-16, 2012 - Special Presentations

2012 (8th) Fantastic Fest - September 20-27, 2012 *U.S. Premiere

2012 (17th) Busan International Film Festival - October 4-13, 2012 - Open Cinema

2012 (45th) Sitges Film Festival - October 4-14, 2012 - Official Fantàstic Competition

2012 (32nd) Hawaii International Film Festival - October 11-21, 2012 - New Chinese Cinema



Video & Audio Technical Specs:


Code:


Encoder: XLMV

Screenshots:

General:

Complete name: Taichi.0.2012.720p.WEB-DL.x264.AAC-XLMV.mkv

Format: Flash Video

File size: 676 MiB

Duration: 1h 34mn

Overall bit rate: 1005 Kbps

Tagging application: Yet Another Metadata Injector for FLV - Version 1.8

Video:

Format: AVC

Format/Info: Advanced Video Codec

Format profile: High@L3.1

Format settings, CABAC: No

Format settings, ReFrames: 6 frames

Codec ID: 7

Duration: 1h 34mn

Bit rate: 932 Kbps

Width: 1280 pixels

Height: 580 pixels

Display aspect ratio: 2.2:1

Frame rate mode: Constant

Frame rate: 25.000 fps

Color space: YUV

Chroma subsampling: 4:2:0

Bit depth: 8 bits

Scan type: Progressive

Bits/(Pixel*Frame): 0.050

Stream size: 627 MiB (93%)

Writing library: x264 core 119

Audio:

Format: AAC

Format/Info: Advanced Audio Codec

Format profile: HE-AAC / LC

Codec ID: 10

Duration: 1h 39mn

Bit rate: 67.0 Kbps

Channel(s): 2 channels

Channel positions: Front: L R

Sampling rate: 48.0 KHz / 24.0 KHz

Compression mode: Lossy

Delay relative to video: 40ms

Stream size: 47.5 MiB (7%)














The Links to the Movie:


Code:


filegag.com

http://filegag.com/h9iylkzeczgm

http://filegag.com/t6mex7n9f52l

http://filegag.com/aewt8nypbubb



megaload.it

http://megaload.it/3rbwn3o9x56j

http://megaload.it/gfef4gqchpxh

http://megaload.it/xrinse1t73d1



blitzfiles.com

http://www.blitzfiles.com/4809mjm4aexx

http://www.blitzfiles.com/6dxxvh7qvf0r

http://www.blitzfiles.com/awgv734iz53a



Subtitle: http://subscene.com/

Password Unrar: nt2win



0 comments:

Post a Comment