skip to main | skip to sidebar

Monday, 1 October 2012

[MsVN-Multi] Stolen 2012 DVDRip XviD AC3-Lum1x.Cướp Siêu Hạng.(Nicolas Cage)



Stolen 2012 DVDRip XviD AC3-Lum1x.

Phim:Cướp Siêu Hạng.(Nicolas Cage)














[B]IMDb

http://www.imdb.com/title/tt1656186/











Bộ Phim STOLEN 2012 nói về một tên trộm đã gác kiếm đang vội vã tìm kiếm người con gái bị bắt cóc của mình, đang bị nhốt sau cốp xe taxi.




PHP Code:


Stolen 2012 DVDRip XviD AC3-Lum1x



Format
: AVI

Format
/Info: Audio Video Interleave

File size
: 1.37 GiB

Duration
: 1h 31mn

Overall bit rate
: 2 143 Kbps

Writing application
: VirtualDubMod 1.5.10.2 (build 2542/release)

Writing library: VirtualDubMod build 2542/release



Video

ID
: 0

Format
: MPEG-4 Visual

Format profile
: Advanced Simple@L5

Format settings
, BVOP: 2

Format settings
, QPel: No

Format settings
, GMC: No warppoints

Format settings
, Matrix: Default (MPEG)

Codec ID: XVID

Codec ID
/Hint: XviD

Duration
: 1h 31mn

Bit rate
: 1 749 Kbps

Width
: 720 pixels

Height
: 400 pixels

Display aspect ratio
: 16:9

Frame rate
: 25.000 fps

Color space
: YUV

Chroma subsampling
: 4:2:0

Bit depth
: 8 bits

Scan type
: Interlaced

Scan order
: Bottom Field First

Compression mode
: Lossy

Bits
/(Pixel*Frame): 0.243

Stream size
: 1.12 GiB (82%)

Writing library: XviD 1.2.1 (UTC 2008-12-04)



Audio

ID
: 1

Format
: AC-3

Format
/Info: Audio Coding 3

Mode extension
: CM (complete main)

Format settings, Endianness: Big

Codec ID
: 2000

Duration
: 1h 31mn

Bit rate mode
: Constant

Bit rate
: 384 Kbps

Channel
(s): 6 channels

Channel positions
: Front: L C R, Side: L R, LFE

Sampling rate
: 48.0 KHz

Bit depth
: 16 bits

Compression mode
: Lossy

Delay relative to video
: 1s 700ms

Stream size
: 252 MiB (18%)

Alignment: Split accross interleaves

Interleave
, duration: 40 ms (1.00 video frame)

Interleave, preload duration: 500 ms





http
://www.imdb.com/title/tt1656186/
















[V-Z]





One Link.Share Acc Vip ở dưới chữ Ký.

Trích:


.............






Trích:


http://www.putlocker.com/file/904929A416C8DC7E

http://www.putlocker.com/file/EE50DAE72937FDBF






Trích:


http://www23.zippyshare.com/v/58044286/file.html

http://www32.zippyshare.com/v/15150648/file.html

http://www22.zippyshare.com/v/53685569/file.html

http://www42.zippyshare.com/v/736140/file.html

http://www1.zippyshare.com/v/35820136/file.html

http://www34.zippyshare.com/v/58408008/file.html

http://www41.zippyshare.com/v/68323396/file.html

http://www60.zippyshare.com/v/59830206/file.html




Phụ Đề Cập Nhật

Trích:


http://v2.subscene.com/filmsearch.aspx?q=Stolen+2012










Chúc các bạn có nhiều niềm vui và hạnh phúc..:X

0 comments:

Post a comment