skip to main | skip to sidebar

Tuesday, 2 October 2012

[MsVN-Multi] Excision 2012 BDRiP AC3-5.1 XviD-AXED



Excision 2012 BDRiP AC3-5.1 XviD-AXED

Thể Loại: Kinh Dị 18+










IMDb

Ratings:6.9/10

http://www.imdb.com/title/tt1984153/















Một học sinh trung học với ước mơ trở thành bác sĩ.Giấc mơ này khiến cô trở nên hoang tưởng.Cô ta đã có những biểu hiện và hành vi của kẻ tâm thần.Hại bạn bè và người thân bằng những ca phẫu thuật. Cô ta được trợ giúp của người mẹ.

Phim có một số cảnh 18+.Không quá phô trương nhưng lại rất ghê rợn.

Thuộc thể loại Kinh Dị.

.




PHP Code:


Excision 2012 BDRiP AC3-5 1 XviD-AXED



IMDB
:

http://www.imdb.com/title/tt1984153/



PLOT INFO:

A disturbed and delusional high school student with aspirations of a career in medicine goes

to extremes to earn the approval of her controlling mother
.



Media Info:

General

Complete name
: C:MainMovieEXCISIONBDMVSTREAMExcision.2012.BDRiP.AC3-5.1.XviD-AXED.avi

Format
: AVI

Format
/Info : Audio Video Interleave

File size
: 1.51 GiB

Duration
: 1h 21mn

Overall bit rate
: 2 656 Kbps



Video

ID
: 0

Format
: MPEG-4 Visual

Format profile
: Advanced Simple@L5

Format settings
, BVOP : 1

Format settings
, QPel : No

Format settings
, GMC : No warppoints

Format settings
, Matrix : Default (H.263)

Codec ID : XVID

Codec ID
/Hint : XviD

Duration
: 1h 21mn

Bit rate
: 2 008 Kbps

Width
: 720 pixels

Height
: 304 pixels

Display aspect ratio
: 2.35:1

Frame rate
: 23.976 fps

Color space
: YUV

Chroma subsampling
: 4:2:0

Bit depth
: 8 bits

Scan type
: Progressive

Compression mode
: Lossy

Bits
/(Pixel*Frame) : 0.383

Stream size
: 1.14 GiB (76%)

Writing library : XviD 1.2.1 (UTC 2008-12-04)



Audio

ID
: 1

Format
: AC-3

Format
/Info : Audio Coding 3

Mode extension
: CM (complete main)

Codec ID : 2000

Duration
: 1h 21mn

Bit rate mode
: Constant

Bit rate
: 640 Kbps

Channel
(s) : 6 channels

Channel positions
: Front: L C R, Side: L R, LFE

Sampling rate
: 48.0 KHz

Bit depth
: 16 bits

Compression mode
: Lossy

Stream size
: 372 MiB (24%)

Alignment : Aligned on interleaves

Interleave
, duration : 64 ms (1.53 video frames)

Interleave, preload duration : 192 ms

Title
: 00001.dga PID 1100 3_2ch 48KHz 640Kbps DELAY 0ms



SOURCE
:

RA Retail Blu Ray DISC














[V-Z]





One Link.Share Acc Vip ở dưới chữ Ký.

Trích:


http://share.vnn.vn/dl.php/11534307






Trích:


http://www.putlocker.com/file/7579E2B47630A981

http://www.putlocker.com/file/90AB59B7A19FC0B2






Trích:


http://www10.zippyshare.com/v/4538666/file.html

http://www29.zippyshare.com/v/71562475/file.html

http://www66.zippyshare.com/v/68795609/file.html

http://www7.zippyshare.com/v/70936040/file.html

http://www52.zippyshare.com/v/39650982/file.html

http://www33.zippyshare.com/v/55819198/file.html

http://www15.zippyshare.com/v/73260684/file.html

http://www7.zippyshare.com/v/15827653/file.html




Phụ Đề Cập Nhật

Trích:


http://v2.subscene.com/filmsearch.aspx?q=+Excision+2012








Chúc các bạn có nhiều niềm vui và hạnh phúc..:X

0 comments:

Post a comment