skip to main | skip to sidebar

Tuesday, 2 October 2012

[Fshare] [Hoạt Hình] See Food 3D.2011.3DTV.HalfOU.1080P.BluRay.X264 Thuyết Minh



Hoạt Hình 3D hiệu ứng đẹp ^^



Trích:


Video

ID: 1

Format: AVC

Format / Info: Advanced Video Codec

Format profile: High@L4.1

Format settings, CABAC: Yes

Format settings, ReFrames: 2 frames

Codec ID: V_MPEG4/ISO/AVC

Duration: 1h 30mn

Bit rate: 14.3 Mbps

Width: 1 920 pixels

Height: 1 080 pixels

Display aspect ratio: 16:9

Frame rate: 23.976 fps

Color space: YUV

Chroma subsampling: 4:2:0

Bit depth: 8 bits

Scan type: Progressive

Bits / (Pixel * Frame): 0.287

Stream size: 9.08 GiB (95%)

Title: cnliti 2012-09-28



Audio

ID: 2

Format: AC-3

Format / Info: Audio Coding 3

Mode extension: CM (complete main)

Codec ID: A_AC3

Duration: 1h 30mn

Bit rate mode: Constant

Bit rate: 448 Kbps

Channel (s): 2 channels

Channel positions: Front: LR

Sampling rate: 48.0 KHz

Bit depth: 16 bits

Compression mode: Lossy

Stream size: 291 MiB (3%)

Title: cnliti 2012-09-28

Language: English




Screens









Trailer



Download

Code:


http://www.fshare.vn/file/TZMCGNYMKT/

0 comments:

Post a comment