skip to main | skip to sidebar

Wednesday, 3 October 2012

[4sVN] All About My Wife 2012 720p HDRip H264-Mbaro



All About My Wife 2012 720p HDRip H264-Mbaro - Yêu Vợ Tôi Đi

Code:


Complete name : D:torrentsAll.About.My.Wife.2012.720p.HDRip.H264-Mbaro.mp4





Format : MPEG-4





Codec ID : M4V





File size : 2.70 GiB





Duration : 2h 1mn





Overall bit rate : 3 187 Kbps





Encoded date : UTC 2012-07-19 1951





Tagged date : UTC 2012-07-19 1951





쯙IM : 00;00;00;00





쯙SC : 30000





쯙SZ : 1001





Video #1





ID : 1





Format : AVC





Format/Info : Advanced Video Codec





Format profile : Main@L3.1





Format settings, CABAC : No





Format settings, ReFrames : 2 frames





Codec ID : avc1





Codec ID/Info : Advanced Video Coding





Duration : 2h 1mn





Bit rate mode : Variable





Bit rate : 2 994 Kbps





Width : 1 280 pixels





Height : 544 pixels





Display aspect ratio : 2.35:1





Frame rate mode : Constant





Frame rate : 29.970 fps





Standard : NTSC





Resolution : 24 bits





Colorimetry : 40





Scan type : Progressive





Bits/(Pixel*Frame) : 0.143





Stream size : 2.53 GiB (94%)





Language : English





Encoded date : UTC 2012-07-19 1951





Tagged date : UTC 2012-07-19 1951





Audio #2





ID : 2





Format : AAC





Format/Info : Advanced Audio Codec





Format version : Version 4





Format profile : LC





Format settings, SBR : No





Codec ID : 40





Duration : 2h 1mn





Bit rate mode : Variable





Bit rate : 192 Kbps





Maximum bit rate : 303 Kbps





Channel(s) : 2 channels





Channel positions : L R





Sampling rate : 48.0 KHz





Resolution : 16 bits





Stream size : 164 MiB (6%)





Language : English





Encoded date : UTC 2012-07-19 1951





Tagged date : UTC 2012-07-19 1951



0 comments:

Post a Comment