skip to main | skip to sidebar

Monday, 10 September 2012

[Zing] Men In Black 3 (2012) DVDRip XviD MAXSPEED - Điệp Vụ Áo Đen 3 [VietSub]






Info

Trích:

Đã mười năm kể từ lần cuối cùng các Mật vụ Áo Đen bảo vệ Trái Đất khỏi những mưu đồ xấu xa từ ngoài vũ trụ. Và sự trở lại của Men In Black 3 là kết quả của sự ấp ủ bấy nhiêu năm của đoàn làm phim. “Chúng tôi muốn bộ phim phải vừa quen thuộc lại vừa mới mẻ”, đạo diễn Barry Sonnenfeld, người chỉ đạo cả ba phần của bộ phim, chia sẻ. “Điều quen thuộc chính là những nhân vật trong phim. Chúng tôi muốn cả Will SmithTommy Lee Jones cùng trở lại. Nhưng chúng tôi cũng muốn một thứ gì đó thật sáng tạo và mới mẻ, và thế là có chuyện du hành ngược thời gian”.

Trong Men in Black 3, Mật vụ J (Will Smith) và K (Tommy Lee Jones) sẽ cùng xuất hiện trở lại. Bản thân đã chứng kiến nhiều điều không tưởng trong suốt 15 năm gắn bó với tổ chức Men in Black (Tổ chức Áo Đen), nhưng không có thứ gì, ngay cả những sinh vật kỳ dị ngoài vũ trụ, có thể khiến cho J tò mò như người bạn cộng sự già trầm lặng ít nói. Khi mạng sống của K và vận mệnh của Trái Đất bị đe dọa, Mật vụ J phải quay về quá khứ để tìm cách cứu vãn. Và J đã khám phá ra những bí mật động trời mà K chưa bao giờ kể với anh, những bí mật sẽ dần được vén màn khi J song hành cùng Mật vụ K khi còn trẻ (Josh Brolin) trong cuộc phiêu lưu giải cứu cộng sự , Tổ chức Áo Đen, và tương lai của cả nhân loại.



Code:

Format : AVI
Format/Info : Audio Video Interleave
Format profile : OpenDML
Format settings : rec
File size : 1.32 GiB
Duration : 1h 45mn
Overall bit rate : 1 791 Kbps
Writing application : VirtualDubMod 1.5.10.2 (build 2542/release)
Writing library : VirtualDubMod build 2542/release
Original source form : MAX TORRENTZ
Copyright : SIGISMUNT

Video
ID : 0
Format : MPEG-4 Visual
Format profile : Advanced Simple@L5
Format settings, BVOP : 2
Format settings, QPel : No
Format settings, GMC : No warppoints
Format settings, Matrix : Default (MPEG)
Codec ID : XVID
Codec ID/Hint : XviD
Duration : 1h 45mn
Bit rate : 1 402 Kbps
Width : 720 pixels
Height : 384 pixels
Display aspect ratio : 1.85:1
Frame rate : 23.976 fps
Color space : YUV
Chroma subsampling : 4:2:0
Bit depth : 8 bits
Scan type : Progressive
Compression mode : Lossy
Bits/(Pixel*Frame) : 0.211
Stream size : 1.04 GiB (78%)

Audio
ID : 1
Format : AC-3
Format/Info : Audio Coding 3
Mode extension : CM (complete main)
Format settings, Endianness : Big
Codec ID : 2000
Duration : 1h 45mn
Bit rate mode : Constant
Bit rate : 384 Kbps
Channel(s) : 6 channels
Channel positions : Front: L C R, Side: L R, LFE
Sampling rate : 48.0 KHz
Bit depth : 16 bits
Compression mode : Lossy
Stream size : 291 MiB (21%)
Alignment : Aligned on interleaves
Interleave, duration : 64 ms (1.53 video frames)
Interleave, preload duration : 192 ms

Screen









Download

Trích:

Part1: http://me.zing.vn/apps/sharefile?par...s2ODAzMjg3MQ==
Part2: http://me.zing.vn/apps/sharefile?par...s2ODAzMjg3MQ==
Part3: http://me.zing.vn/apps/sharefile?par...s2ODAzMjg3MQ==
Part4: http://me.zing.vn/apps/sharefile?par...s2ODAzMjg3MQ==
Part5: http://me.zing.vn/apps/sharefile?par...s2ODAzMjg3MQ==
Part6: http://me.zing.vn/apps/sharefile?par...s2ODAzMjg3MQ==
Part7: http://me.zing.vn/apps/sharefile?par...s2ODAzMjg3MQ==
Part8: http://me.zing.vn/apps/sharefile?par...s2ODAzMjg3MQ==


Trích:

Pass Unrar: huutho444@vn-zoom.com


Trích:

Sub: http://subscene.com/subtitles/men-in...tnamese/623686


0 comments:

Post a comment