skip to main | skip to sidebar

Tuesday, 11 September 2012

[MsVN/Up] Conquest 1453 (2012) 720p Bluray.DD5.1.x264-orhann.Cuộc Chiến Kết Thúc 14




[MsVN] Conquest 1453 (2012) 720p Bluray.DD5.1.x264-orhann
Thể Loại: Dã Sử



IMDb
Rating: 8.7/10
http://www.imdb.com/title/tt1783232/






Diễn biến film sảy ra vào nam 1453 ở Thổ Nhĩ Kỳ.Khi đó Byzantium đang hùng mạnh và cai trị nguòi dân rất hung dữ và tàn ác.Khi đó Vua Sultan Mehmed II đã tổ chức và chiến đấu lật đổ đế chế Byzantium.
Sự kiện này được coi là vĩ đại nhất của lịch sử Thổ Nhĩ Kỳ thời bấy giờ.


Đạo diễn:
Faruk Aksoyp
Kịch bản:
Atilla Engin , Irfan Saruhan
Diễn viên:
Devrim Evin, Ibrahim Celikkol and Dilek Serbest .....


PHP Code:

Conquest1453_2012_Bluray720p.x264_Orha

Format
: Matroska
Format version
: Version 2
File size
: 3.35 GiB
Duration
: 2h 36mn
Overall bit rate
: 3 075 Kbps
Movie name
: orhann
Encoded date
: UTC 2012-09-09 21:40:30
Writing application
: mkvmerge v5.2.0 ('I can't explain') built on Dec 18 2011 18:12:03
Writing library : libebml v1.2.3 + libmatroska v1.3.0
Video #1
ID : 1
Format : AVC
Format/Info : Advanced Video Codec
Format profile : High@L4.1
Format settings, CABAC : Yes
Format settings, ReFrames : 5 frames
Codec ID : V_MPEG4/ISO/AVC
Duration : 2h 36mn
Bit rate : 2 566 Kbps
Width : 1 280 pixels
Height : 528 pixels
Display aspect ratio : 2.40:1
Frame rate : 25.000 fps
Color space : YUV
Chroma subsampling : 4:2:0
Bit depth : 8 bits
Scan type : Progressive
Bits/(Pixel*Frame) : 0.152
Stream size : 2.80 GiB (83%)
Title : ARENA
Writing library : x264 core 125 r2208 d9d2288
Encoding settings : cabac=1 / ref=5 / deblock=1:0:0 / analyse=0x3:0x113 / me=umh / subme=7 / psy=1 / psy_rd=1.00:0.00 / mixed_ref=1 / me_range=16 / chroma_me=1 / trellis=1 / 8x8dct=1 / cqm=0 / deadzone=21,11 / fast_pskip=0 / chroma_qp_offset=-2 / threads=12 / lookahead_threads=2 / sliced_threads=0 / nr=0 / decimate=1 / interlaced=0 / bluray_compat=0 / constrained_intra=0 / bframes=3 / b_pyramid=2 / b_adapt=1 / b_bias=0 / direct=1 / weightb=1 / open_gop=0 / weightp=2 / keyint=250 / keyint_min=25 / scenecut=40 / intra_refresh=0 / rc_lookahead=40 / rc=crf / mbtree=1 / crf=20.0 / qcomp=0.60 / qpmin=0 / qpmax=69 / qpstep=4 / ip_ratio=1.40 / aq=1:1.00
Language : Turkish
Default : Yes
Forced : No
Audio #2
ID : 2
Format : AC-3
Format/Info : Audio Coding 3
Mode extension : CM (complete main)
Format settings, Endianness : Big
Codec ID : A_AC3
Duration : 2h 36mn
Bit rate mode : Constant
Bit rate : 448 Kbps
Channel(s) : 6 channels
Channel positions : Front: L C R, Side: L R, LFE
Sampling rate : 48.0 KHz
Bit depth : 16 bits
Compression mode : Lossy
Delay relative to video : 16ms
Stream size : 500 MiB (15%)
Title : ARENA
Language : Turkish
Default : Yes
Forced : No
Text #3
ID : 3
Format : UTF-8
Codec ID : S_TEXT/UTF8
Codec ID/Info : UTF-8 Plain Text
Language : English
Default : Yes
Forced : No
Text #4
ID : 4
Format : UTF-8
Codec ID : S_TEXT/UTF8
Codec ID/Info : UTF-8 Plain Text
Language : German
Default : No
Forced : No
Text #5
ID : 5
Format : UTF-8
Codec ID : S_TEXT/UTF8
Codec ID/Info : UTF-8 Plain Text
Language : Greek
Default : No
Forced : No
Text #6
ID : 6
Format : UTF-8
Codec ID : S_TEXT/UTF8
Codec ID/Info : UTF-8 Plain Text
Language : Portuguese
Default : No
Forced : No
Text #7
ID : 7
Format : UTF-8
Codec ID : S_TEXT/UTF8
Codec ID/Info : UTF-8 Plain Text
Language : Arabic
Default : No
Forced : No
Text #8
ID : 8
Format : UTF-8
Codec ID : S_TEXT/UTF8
Codec ID/Info : UTF-8 Plain Text
Language : Romanian
Default : No
Forced : No








[V-Z]



One Link
Trích:

http://share.vnn.vn/dl.php/11504301


Uppit
Put 5% Recovery
Trích:

http://uppit.com/hxj7nthl1h6e/VNZ.Co...2004.part1.rar
http://uppit.com/v17osoz67824/VNZ.Co...2004.part2.rar
http://uppit.com/uhqfrrjstq15/VNZ.Co...2004.part3.rar
http://uppit.com/7k24vzssvupy/VNZ.Co...2004.part4.rar
http://uppit.com/ptwd0xj8oo4f/VNZ.Co...2004.part5.rar
http://uppit.com/gtdbxsnzo9jo/VNZ.Co...2004.part6.rar
http://uppit.com/qqbyy61i3epv/VNZ.Co...2004.part7.rar
http://uppit.com/7725u74vskp5/VNZ.Co...2004.part8.rar


Phụ Đề
Trích:

http://v2.subscene.com/conquest-1453...les-96798.aspx


Bản DVDRip
Conquest 1453 (2012) DVDRip XviD AC3 RoSubbed-ViSiON.



Chúc các bạn có nhiều niềm vui và hạnh phúc.:X


0 comments:

Post a Comment