skip to main | skip to sidebar

Tuesday, 11 September 2012

[MsVN/PL] Underground 2011 720p BluRay x264-SONiDO




[MsVN] Underground 2011 720p BluRay x264-SONiDO
Thể Loại: Kinh Dị





IMDb
http://www.imdb.com/title/tt1811371/





Encoder







Sau một cuộc vui chơi tại vũ trường.Một nhóm bạn đã gặp phải những quái vật sống dưới những lòng cống thải và tầng hầm của những khu bỏ hoang.Họ đã đối mặt với rất nhiều khó khăn và nguy hiểm đến tính mạng.Một số người bạn trong nhóm đã bị monter giết hại.
Những quái vật này là kết quả của những cuộc nghiên cứu của quân đội về việc biến đổi gen.


PHP Code:

Complete name :Underground 2011 720p BluRay x264-SONiDO

Format
: Matroska
Format version
: Version 2
File size
: 3.28 GiB
Duration
: 1h 26mn
Overall bit rate
: 5 411 Kbps
Encoded date
: UTC 2012-09-10 09:34:56
Writing application
: mkvmerge v5.6.0 ('Kenya Kane') built on May 27 2012 16:44:04
Writing library
: libebml v1.2.3 + libmatroska v1.3.0

Video
ID
: 1
Format
: AVC
Format
/Info : Advanced Video Codec
Format profile
: High@L4.1
Format settings
, CABAC : Yes
Format settings
, ReFrames : 5 frames
Codec ID
: V_MPEG4/ISO/AVC
Duration
: 1h 26mn
Bit rate
: 4 962 Kbps
Width
: 1 280 pixels
Height
: 536 pixels
Display aspect ratio
: 2.40:1
Frame rate
: 23.976 fps
Color space
: YUV
Chroma subsampling
: 4:2:0
Bit depth
: 8 bits
Scan type
: Progressive
Bits
/(Pixel*Frame) : 0.302
Stream size
: 2.94 GiB (90%)
Writing library : x264 core 125 r2208 d9d2288
Language
: English
Default : Yes
Forced
: No

Audio
ID
: 2
Format
: AC-3
Format
/Info : Audio Coding 3
Mode extension
: CM (complete main)
Format settings, Endianness : Big
Codec ID
: A_AC3
Duration
: 1h 26mn
Bit rate mode
: Constant
Bit rate
: 448 Kbps
Channel
(s) : 6 channels
Channel positions
: Front: L C R, Side: L R, LFE
Sampling rate
: 48.0 KHz
Bit depth
: 16 bits
Compression mode
: Lossy
Stream size
: 278 MiB (8%)
Language : English
Default : Yes
Forced
: No






[V-Z]


One Link
Trích:

Uploading


Putlocker
Put 5% Recovery.Rename file nếu bị thay đổi.
Trích:

http://www.putlocker.com/file/B52FD5887971B02E
http://www.putlocker.com/file/DEE3C7FA79921073
http://www.putlocker.com/file/4D787F5BC6C33A7F
http://www.putlocker.com/file/A623250670A8D732


Phụ Đề
Trích:

http://v2.subscene.com/underground-2...les-93918.aspx




Chúc các bạn có nhiều niềm vui và hạnh phúc.:X


0 comments:

Post a Comment