skip to main | skip to sidebar

Thursday, 27 September 2012

[MsVN-Uppit] Ice Age 4 Continental Drift 2012 DVDRip x264 AC3-JYK.Kỷ Băng Hà 4.



Ice Age 4 Continental Drift 2012 DVDRip x264 AC3-JYK.

Kỷ Băng Hà 4.








IMDb

Rating:6.8/10 from 26,284 users


http://www.imdb.com/title/tt1667889/















Poster













Ra mắt phần đầu tiên từ cách đây 10 năm, Ice Age cho đến nay là loạt phim hoạt hình 3D sở hữu lượng fan đông đảo trên toàn thế giới. Ba phần trước đem lại cho hãng Fox lợi nhuận khổng lồ gần 2 tỷ USD và là một trong những loạt phim hoạt hình 3D ăn khách nhất lịch sử điện ảnh. Câu chuyện về xã hội của các loài vật thời kỳ nguyên thủy trước sự biến đổi của thiên nhiên, Trái Đất nhìn dưới góc độ hài hước, vui nhộn luôn mang tới một làn không khí mát lạnh giữa mùa hè nóng bỏng. Năm nay, Ice Age trình làng tập phim thứ tư có tên gọi Continental Drift. Lúc này, “kỷ băng hà” đã trở thành “kỷ băng trôi” cùng sự xuất hiện của nhiều nhân vật mới.



Ice Age 4: Continental Drift tiếp tục là cuộc hành trình tìm trái hạt dẻ “bị nguyền rủa” của chú sóc gặm nhấm Scrat. Công cuộc tìm kiếm từ khi bình minh của Trái đất ló rạng, kéo theo vô số hậu quả khôn lường khi các lục địa bị tách ra. Trong đó, trận đại hồng thủy dữ dội đã khởi đầu cho hàng loạt cuộc phiêu lưu kỳ thú nhưng đầy nguy hiểm của bộ ba thân thiết voi ma mút Manny, lười tiền sử Sid và hổ răng kiếm Diego. Trong tập này, Sid gặp lại bà ngoại Granny gắt gỏng. Cả nhóm sau đó không may chạm trán với lũ cướp biển và bị ngăn cản trên đường trở về nhà. Đứng đầu băng cướp này là thuyền trưởng Gutt, kẻ tự coi mình là ông vua của đại dương với những quy luật đậm chất “xã hội đen”.



Phần bốn lấy ý tưởng về sự hình thành của các lục địa mà thủ phạm chính là chú sóc “cuồng” hạt dẻ - Scrat. Đây luôn là nhân vật không liên quan tới câu chuyện về ba người bạn Manny, Sid và Diego trong Ice Age nhưng lại là linh hồn của cả loạt phim. Scrat tiếp tục giữ vai trò là người mở màn và người kết thúc cho Ice Age 4: Continental Drift. Mặc dù cả phim chẳng có lời thoại nào và chỉ chăm chăm đi kiếm hạt dẻ nhưng chính sự “cuồng” hạt dẻ quá mức của Scrat lại làm nên tiếng cười nơi khán giả. Một trong những điểm bất ngờ nhất trong phần này là khi Scrat gặp được đồng loại và tiếp tục gây nên một thảm họa ở cuối phim.



Bộ ba nhân vật voi ma mút Manny, lười tiền sử Sid và hổ răng kiếm Diego trong phần này vẫn mang những nét đặc trưng như ba phần trước. Manny luôn là ông bố nghiêm khắc và coi trọng gia đình, Diego có ngoại hình hung dữ nhưng tính tình lại rất “sến”, còn Sid thì ngốc nghếch, chuyên làm trò dại dột. Trong phần này, Manny phải đối mặt với những mâu thuẫn giữa mình và cô con gái Peaches đến tuổi “cặp kê, mê khám phá”. Diego thì thổn thức, đứng ngồi không yên sau khi gặp nàng hổ có đôi mắt lẳng lơ Shira bên đội cướp biển. Sid bỗng dưng phải lĩnh trách nhiệm nặng nề là trông coi bà ngoại “từ trên giời rơi xuống” – Granny.




PHP Code:


Ice.Age.4.Continental.Drift.2012.DVDRip.x264.AC3-JYK.mkv



Format
: Matroska

Format version
: Version 2

File size
: 1.34 GiB

Duration
: 1h 27mn

Overall bit rate
: 2 184 Kbps

Encoded date
: UTC 2012-09-26 17:52:19

Writing application
: mkvmerge v5.6.0 ('Kenya Kane') built on May 27 2012 16:44:04

Writing library
: libebml v1.2.3 + libmatroska v1.3.0

Video
#1

ID : 1

Format
: AVC

Format
/Info : Advanced Video Codec

Format profile
: High@L4.1

Format settings
, CABAC : Yes

Format settings
, ReFrames : 4 frames

Codec ID
: V_MPEG4/ISO/AVC

Duration
: 1h 27mn

Bit rate
: 1 750 Kbps

Width
: 720 pixels

Height
: 304 pixels

Display aspect ratio
: 2.35:1

Frame rate
: 23.976 fps

Color space
: YUV

Chroma subsampling
: 4:2:0

Bit depth
: 8 bits

Scan type
: Progressive

Bits
/(Pixel*Frame) : 0.333

Stream size
: 1.04 GiB (77%)

Writing library : x264 core 125 r2200bm 999b753

Encoding settings
: cabac=1 / ref=3 / deblock=1:-1:-1 / analyse=0x3:0x113 / me=hex / subme=7 / psy=1 / psy_rd=1.00:0.15 / mixed_ref=1 / me_range=16 / chroma_me=1 / trellis=1 / 8x8dct=1 / cqm=0 / deadzone=21,11 / fast_pskip=1 / chroma_qp_offset=-3 / threads=3 / lookahead_threads=1 / sliced_threads=0 / nr=0 / decimate=1 / interlaced=0 / bluray_compat=0 / constrained_intra=0 / bframes=3 / b_pyramid=2 / b_adapt=1 / b_bias=0 / direct=1 / weightb=1 / open_gop=0 / weightp=2 / keyint=250 / keyint_min=23 / scenecut=40 / intra_refresh=0 / rc_lookahead=40 / rc=abr / mbtree=1 / bitrate=1750 / ratetol=1.0 / qcomp=0.60 / qpmin=0 / qpmax=69 / qpstep=4 / ip_ratio=1.40 / aq=1:1.00

Default : Yes

Forced
: No

Audio
#2

ID : 2

Format
: AC-3

Format
/Info : Audio Coding 3

Mode extension
: CM (complete main)

Format settings, Endianness : Big

Codec ID
: A_AC3

Duration
: 1h 27mn

Bit rate mode
: Constant

Bit rate
: 448 Kbps

Channel
(s) : 6 channels

Channel positions
: Front: L C R, Side: L R, LFE

Sampling rate
: 48.0 KHz

Bit depth
: 16 bits

Compression mode
: Lossy

Stream size
: 281 MiB (21%)

Language : English

Default : Yes

Forced
: No














[V-Z]





One Link.Share Acc Vip ở dưới chữ Ký.

Trích:


http://share.vnn.vn/dl.php/11518691




Uppit

Trích:


http://uppit.com/9nzgyspztb6j/VNZ-Ky...2004.part1.rar

http://uppit.com/yjy2it1f49gj/VNZ-Ky...2004.part2.rar

http://uppit.com/c69ckqnuvu4o/VNZ-Ky...2004.part3.rar








Phụ Đề Mod vípkiller

Sync từ bản dịch của Phan Thanh Hoài


Trích:


http://v2.subscene.com/vietnamese/ic...le-631250.aspx










Chúc các bạn có nhiều niềm vui và hạnh phúc..:X

0 comments:

Post a Comment