skip to main | skip to sidebar

Tuesday, 11 September 2012

[MsVN] Men In Black 3 2012 1080p BluRay 3D HSBS - PublicHD - Đặc Vụ Áo Đen 3 (Thuyết




Men In Black 3 2012 1080p BluRay 3D HSBS
Đặc Vụ Áo Đen 3




IMDB

Code:

http://www.imdb.com/title/tt1409024/

TRAILER:


Nội Dung:
Trích:

Đặc vụ J quay ngược thời gian du hành về MIB những năm đầu của thập niên 60 nhằm ngăn chặn một âm mưu ám sát của nước ngoài nhắm bạn anh là Đặc vụ K và mọi việc bắt đầu thay đổi.




- Cảm ơn các nhà tài trợ đã donate để VAV có kinh phí thực hiện Thuyết minh phim.
Code:

General
Unique ID : 185932766266503213721864851957638551221 (0x8BE15924EA750C80981FE3F6891CD6B5)
Complete name : Men In Black 3 2012 1080p BluRay 3D HSBS.mkv
Format : Matroska
Format version : Version 2
File size : 12.1 GiB
Duration : 1h 45mn
Overall bit rate : 16.3 Mbps
Encoded date : UTC 2012-09-09 06:20:00
Writing application : mkvmerge v5.7.0 ('The Whirlwind') built on Jul 8 2012 20:08:51
Writing library : libebml v1.2.3 + libmatroska v1.3.0

Video
ID : 1
Format : AVC
Format/Info : Advanced Video Codec
Format profile : High@L4.1
Format settings, CABAC : Yes
Format settings, ReFrames : 2 frames
Muxing mode : Header stripping
Codec ID : V_MPEG4/ISO/AVC
Duration : 1h 45mn
Bit rate : 13.9 Mbps
Width : 1 920 pixels
Height : 1 040 pixels
Display aspect ratio : 1.85:1
Frame rate : 23.976 fps
Color space : YUV
Chroma subsampling : 4:2:0
Bit depth : 8 bits
Scan type : Progressive
Bits/(Pixel*Frame) : 0.290
Stream size : 10.3 GiB (85%)
Writing library : x264 core
Language : English
Default : Yes
Forced : No
Color primaries : BT.709-5, BT.1361, IEC 61966-2-4, SMPTE RP177
Transfer characteristics : BT.709-5, BT.1361
Matrix coefficients : BT.709-5, BT.1361, IEC 61966-2-4 709, SMPTE RP177

Audio #1
ID : 2
Format : AC-3
Format/Info : Audio Coding 3
Mode extension : CM (complete main)
Format settings, Endianness : Big
Codec ID : A_AC3
Duration : 1h 45mn
Bit rate mode : Constant
Bit rate : 640 Kbps
Channel(s) : 6 channels
Channel positions : Front: L C R, Side: L R, LFE
Sampling rate : 48.0 KHz
Bit depth : 16 bits
Compression mode : Lossy
Stream size : 484 MiB (4%)
Title : HDAT
Language : Vietnamese
Default : No
Forced : Yes

Audio #2
ID : 3
Format : DTS
Format/Info : Digital Theater Systems
Muxing mode : Header stripping
Codec ID : A_DTS
Duration : 1h 45mn
Bit rate mode : Constant
Bit rate : 1 510 Kbps
Channel(s) : 6 channels
Channel positions : Front: L C R, Side: L R, LFE
Sampling rate : 48.0 KHz
Bit depth : 16 bits
Compression mode : Lossy
Stream size : 1.12 GiB (9%)
Language : English
Default : Yes
Forced : No













Trích:

Men In Black 3 2012 1080p BluRay 3D HSBS - MegaShare


Sub:
Trích:

Men in Black III Vietnamese subtitle - Subscene


CHÚC CÁC BẠN XEM PHIM VUI VẺ!


0 comments:

Post a Comment