skip to main | skip to sidebar

Monday, 10 September 2012

[MS/MULTI] Conquest 1453 (2012) DVDRip XviD AC3 RoSubbed-ViSiON.




[MsVN/MULTI] Conquest 1453 (2012) DVDRip XviD AC3 RoSubbed-ViSiON
Thể Loại: Dã Sử






IMDb
Rating: 8.7/10
http://www.imdb.com/title/tt1783232/








Diễn biến film sảy ra vào nam 1453 ở Thổ Nhĩ Kỳ.Khi đó Byzantium đang hùng mạnh và cai trị nguòi dân rất hung dữ và tàn ác.Khi đó Vua Sultan Mehmed II đã tổ chức và chiến đấu lật đổ đế chế Byzantium.Sự kiện này được coi là vĩ đại nhất của lịch sử Thổ Nhĩ Kỳ thời bấy giờ.


Đạo diễn:
Faruk Aksoyp
Kịch bản:
Atilla Engin , Irfan Saruhan
Diễn viên:
Devrim Evin, Ibrahim Celikkol and Dilek Serbest .....


PHP Code:

Complete name : Conquest 1453 2012 DVDRip XviD AC3 RoSubbed-ViSiON
Format
: AVI
Format
/Info : Audio Video Interleave
File size
: 2.19 GiB
Duration
: 2h 36mn
Overall bit rate
: 2 005 Kbps
Writing application
: VirtualDubMod 1.5.10.2 (build 2542/release)
Writing library : VirtualDubMod build 2542/release
Video
#0
ID : 0
Format
: MPEG-4 Visual
Format profile
: Advanced Simple@L5
Format settings
, BVOP : 1
Format settings
, QPel : No
Format settings
, GMC : No warppoints
Format settings
, Matrix : Custom
Muxing mode
: Packed bitstream
Codec ID
: XVID
Codec ID
/Hint : XviD
Duration
: 2h 36mn
Bit rate
: 1 469 Kbps
Width
: 720 pixels
Height
: 304 pixels
Display aspect ratio
: 2.35:1
Frame rate
: 25.000 fps
Color space
: YUV
Chroma subsampling
: 4:2:0
Bit depth
: 8 bits
Scan type
: Progressive
Compression mode
: Lossy
Bits
/(Pixel*Frame) : 0.268
Stream size
: 1.60 GiB (73%)
Writing library : XviD 1.2.1 (UTC 2008-12-04)
Audio #1
ID : 1
Format
: AC-3
Format
/Info : Audio Coding 3
Mode extension
: CM (complete main)
Format settings, Endianness : Big
Codec ID
: 2000
Duration
: 2h 36mn
Bit rate mode
: Constant
Bit rate
: 448 Kbps
Channel
(s) : 6 channels
Channel positions
: Front: L C R, Side: L R, LFE
Sampling rate
: 48.0 KHz
Bit depth
: 16 bits
Compression mode
: Lossy
Stream size
: 500 MiB (22%)
Alignment : Split accross interleaves








[V-Z]



One Link
Trích:

...Uploading...


Putlocker
Trích:

http://www.putlocker.com/file/95E1C272476522D3
http://www.putlocker.com/file/6476E71AEBA17AF1
http://www.putlocker.com/file/F739CB45686B0275



Phụ Đề
Trích:

http://v2.subscene.com/conquest-1453...les-96798.aspx



Chúc các bạn có nhiều niềm vui và hạnh phúc.:X


0 comments:

Post a comment