skip to main | skip to sidebar

Monday, 17 September 2012

[Kinh Dị | 1 Link] V-H-S (2012) 720p HDTV AC3-2.0 x264-AXED




V-H-S (2012) 720p HDTV AC3-2.0 x264-AXED
Code:

General
Unique ID : 189949181969514653593513283091654991524 (0x8EE6E1BA26C1A6A4B5CB0148E2135EA4)
Complete name : V-H-S.2012.720p.HDRiP.AC3-2.0.x264-AXED.mkv
Format : Matroska
Format version : Version 2
File size : 3.72 GiB
Duration : 1h 56mn
Overall bit rate : 4 585 Kbps
Encoded date : UTC 2012-09-10 19:53:15
Writing application : mkvmerge v4.0.0 ('The Stars were mine') built on Jun 6 2010 16:18:42
Writing library : libebml v1.0.0 + libmatroska v1.0.0
Video #1
ID : 1
Format : AVC
Format/Info : Advanced Video Codec
Format profile : High@L4.1
Format settings, CABAC : Yes
Format settings, ReFrames : 4 frames
Codec ID : V_MPEG4/ISO/AVC
Duration : 1h 56mn
Bit rate : 4 400 Kbps
Width : 1 280 pixels
Height : 720 pixels
Display aspect ratio : 16:9
Frame rate : 23.976 fps
Color space : YUV
Chroma subsampling : 4:2:0
Bit depth : 8 bits
Scan type : Progressive
Bits/(Pixel*Frame) : 0.199
Stream size : 3.49 GiB (94%)
Writing library : x264 core 68 r1195bm 5d75a9b
Default : Yes
Forced : No
Audio #2
ID : 2
Format : AC-3
Format/Info : Audio Coding 3
Mode extension : CM (complete main)
Format settings, Endianness : Big
Codec ID : A_AC3
Duration : 1h 56mn
Bit rate mode : Constant
Bit rate : 192 Kbps
Channel(s) : 2 channels
Channel positions : Front: L R
Sampling rate : 48.0 KHz
Bit depth : 16 bits
Compression mode : Lossy
Stream size : 160 MiB (4%)
Default : Yes
Forced : No

Trích:






0 comments:

Post a comment