skip to main | skip to sidebar

Tuesday, 11 September 2012

[FsVN-Zing] Undisputed II: Last Man Standing - Quyết đấu II [2006] Brrip x264 712Mb [




Undisputed II: Last Man Standing 2006





[V-Z]


Đạo diễn: Isaac Florentine
Diễn viên: Michael Jai White, Scott Adkins, Ben Cross, Eli Danker, Mark Ivanir, Ken Lerner, Daisy Lang, Silvio Simac, Ivaylo Geraskov, Valentin Ganev, Atanas Srebrev, Michail Elenov, Velizar Binev, George Zlatarev, Ruslan Kupenov
Thể loại: Hành Động,Võ Thuật,
Sản xuất: Millennium Films, Nu Image Films
Quốc gia: Mỹ
Thời lượng: 98 Phút
Năm phát hành: 2006
http://akas.imdb.com/title/tt0443676/


Nhà cựu vô địch quyền anh hạng nặng Mỹ George ( biệt danh Chambers ) bị giăng bẫy và giam trong một nhà tù ở Nga và nếu muốn ra tù anh bị bắt buộc phải tham gia trận đánh với Boyka, nhà vô đich của các trận đấu trong tù. Anh sẽ làm gì? đấu hay không đấu? Vào tù anh được một cựu đặc công người Nga dạy cho vài tuyệt chiêu đánh nhau và 1 bài học về tình người, anh đã biết giúp đỡ người khác, cảm thấy hạnh phúc khi giúp đỡ được người khác...


Trích:

Format : MPEG-4
Format profile : Base Media
Codec ID : isom
File size : 714 MiB
Duration : 1h 37mn
Overall bit rate mode : Variable
Overall bit rate : 1 022 Kbps
Encoded date : UTC 2012-09-05 10:17:20
Tagged date : UTC 2012-09-05 10:17:20

Video
ID : 1
Format : AVC
Format/Info : Advanced Video Codec
Format profile : Main@L4.0
Format settings, CABAC : Yes
Format settings, ReFrames : 2 frames
Codec ID : avc1
Codec ID/Info : Advanced Video Coding
Duration : 1h 37mn
Bit rate : 900 Kbps
Maximum bit rate : 4 814 Kbps
Width : 1 280 pixels
Height : 720 pixels
Display aspect ratio : 16:9
Frame rate mode : Constant
Frame rate : 23.976 fps
Color space : YUV
Chroma subsampling : 4:2:0
Bit depth : 8 bits
Scan type : Progressive
Bits/(Pixel*Frame) : 0.041
Stream size : 621 MiB (87%)
Writing library : x264 core 60 r891kVAQ2mod.PsyRDO-generic-pf 2ca4593
Encoding settings : cabac=1 / ref=1 / deblock=1:0:0 / analyse=0x1:0x110 / me=hex / subme=5 / rdcmp=psy / brdo=0 / mixed_ref=0 / me_range=16 / chroma_me=1 / trellis=2 / 8x8dct=0 / cqm=0 / deadzone=21,11 / chroma_qp_offset=0 / threads=4 / nr=0 / decimate=1 / mbaff=0 / bframes=1 / b_pyramid=0 / b_adapt=1 / b_bias=0 / direct=1 / wpredb=1 / bime=1 / keyint=250 / keyint_min=25 / scenecut=40(pre) / rc=abr / bitrate=900 / ratetol=1.0 / rceq='blurCplx^(1-qComp)' / qcomp=0.60 / qpmin=10 / qpmax=51 / qpstep=4 / ip_ratio=1.40 / pb_ratio=1.30 / aq=3:3:0.60
Encoded date : UTC 2012-09-05 10:17:20
Tagged date : UTC 2012-09-05 10:19:11

Audio
ID : 2
Format : AAC
Format/Info : Advanced Audio Codec
Format profile : LC
Codec ID : 40
Duration : 1h 37mn
Bit rate mode : Variable
Bit rate : 129 Kbps
Maximum bit rate : 184 Kbps
Channel(s) : 2 channels
Channel positions : Front: L R
Sampling rate : 48.0 KHz
Compression mode : Lossy
Stream size : 90.1 MiB (13%)
Encoded date : UTC 2012-09-05 10:19:08
Tagged date : UTC 2012-09-05 10:19:11

Nguồn: http://i-max.vn/forum/thread49890.html#ixzz263m1ef8n
Đây là trang coi phim online nhanh và tải phim dễ dàng nhất
Xem phim online "Chất Lượng Cao tại i-Max.vn"















Code:

http://www.fshare.vn/file/T8DAYC6YJT/


Code:

01. http://me.zing.vn/apps/sharefile?par...MrMzQ4MTg3Mw==
02. http://me.zing.vn/apps/sharefile?par...QrMzQ4MTg3Mw==
03. http://me.zing.vn/apps/sharefile?par...UrMzQ4MTg3Mw==
04. http://me.zing.vn/apps/sharefile?par...YrMzQ4MTg3Mw==



Code:

Chicharito_82


Code:

Phim đã được Hard Sub Việt

Nguồn: I-max.vn


Click ThanksComments để động viên nha!


0 comments:

Post a Comment