skip to main | skip to sidebar

Monday, 17 September 2012

Fs Tổng hợp phim tình cảm - lãng mạn - 18+ PHÁP QUỐC




Fs Tổng hợp phim tình cảm - lãng mạn - 18+ PHÁP QUỐC

Trích:

Không nổi tiếng như phim Mỹ.
Không ồn ào như phim Tàu.
Không mùi mẫn như phim Hàn.
Người Pháp vẫn cho ra đời các tác phẩm điện ảnh khiến chúng ta phải tiếc nối khi giai điệu cuối cùng vang lên.
Chất thơ, tiếng nhạc, sự lãng mạn trong mỗi tác phẩm hòa quyện với sự tự do vốn có của 1 dân tộc tiên tiến luôn có những sức hút riêng với những ai biết mở lòng tiếp nhận cái mới và yêu tự do.



Laura les ombres de lete 1979 - 18+
Mùa hè bóng mát




Trích:

Trong làn hơi nước hư hư thực thực, 1 cô bé lấp lánh làm gã trung niên phải nhắm mắt bồi hồi.
Trong quán nước, cô bé kia bằng xương bằng thịt lại 1 lần nữa làm gã tò mò dù rằng chưa 1 lần giáp mặt.
Trong lớp bale cô bé kia mĩm cười khiến gã sướng rân người, gã tiến đến, tiến đến ... và ... mẹ cô bé - cũng là người tình củ của gã sau bao năm xa cách bỗng dưng xuất hiện lấp khoảng trống giữa 2 người (Trời ạ, sao mà ác thế).
Đúng như tên gọi - Mùa hè bóng mát - Những cô bé mơn mởn vô tư khoe mẽ khiến chúng ta phải chạnh lòng. Dường như nó là thứ thần dược mà chúng ta luôn cần đến - Hè thì mát, đông lại nóng hực người.
* Lưu ý: Phim có nhiều cảnh nuy, bạn cần suy nghĩ trước khi xem.
* Cảm nhận: Bắt cô bé mới trạc 14 tuổi hoàn toàn khỏa thân đóng cảnh ái ân của người lớn lên màn ảnh - Bọn Pháp thực sự dã man - Dù mình rất rất thích ngắm thiên thần đó.




Giới thi
Code:

Đạo diễn: David Hamilton
Diễn viên: Maud Adams, Dawn Dunlap and James Mitchell
Thể loại: Drama - Romance
Quốc gia: Pháp
Năm: 1979
Dung lượng: 1.37 GiB
Độ dài: 1h 26mn
IMDB: http://www.imdb.com/title/tt0079449/


Media Info

Code:

General
Complete name : E:\Laura les ombres de lete 1979 - 18+\Laura, les ombres de l'ete_[torrents.avi
Format : AVI
Format/Info : Audio Video Interleave
File size : 1.37 GiB
Duration : 1h 26mn
Overall bit rate mode : Variable
Overall bit rate : 2 269 Kbps
Writing application : VirtualDubMod 1.5.4.1 (build 2178/release)
Writing library : VirtualDubMod build 2178/release

Video
ID : 0
Format : MPEG-4 Visual
Format settings, BVOP : No
Format settings, QPel : No
Format settings, GMC : No warppoints
Format settings, Matrix : Default (H.263)
Codec ID : DX50
Codec ID/Hint : DivX 5
Duration : 1h 26mn
Bit rate : 2 154 Kbps
Width : 672 pixels
Height : 432 pixels
Display aspect ratio : 1.556
Frame rate : 25.000 fps
Color space : YUV
Chroma subsampling : 4:2:0
Bit depth : 8 bits
Scan type : Progressive
Compression mode : Lossy
Bits/(Pixel*Frame) : 0.297
Stream size : 1.30 GiB (95%)
Writing library : DivX 6.6.1.4

Audio
ID : 1
Format : MPEG Audio
Format version : Version 1
Format profile : Layer 3
Mode : Joint stereo
Mode extension : MS Stereo
Codec ID : 55
Codec ID/Hint : MP3
Duration : 1h 26mn
Bit rate mode : Variable
Bit rate : 102 Kbps
Nominal bit rate : 128 Kbps
Channel(s) : 2 channels
Sampling rate : 48.0 KHz
Compression mode : Lossy
Stream size : 62.9 MiB (4%)
Alignment : Aligned on interleaves
Interleave, duration : 24 ms (0.60 video frame)
Interleave, preload duration : 504 ms
Writing library : LAME3.97
Encoding settings : -m j -V 4 -q 2 -lowpass 17 --abr 128
Language : Russian






Download - Sub Việt kèm Folder

http://www.fshare.vn/folder/TJ1BNTTF4T/




0 comments:

Post a comment