skip to main | skip to sidebar

Thursday, 20 September 2012

[4SVN][HOẠT HÌNH]The Propeller - Vương Quốc Xe Hơi VIE 2012 BDRip 720p Thuyết Minh





The Propeller VIE 2012 BDRip 720p





Vài tuần trước ngày hội Hàng không lớn nhất thì chàng tiêm kích trẻ SU-27 tên là Vichya mới vào học lớp trình diễn máy bay, nơi đào tạo cho cuộc thi đấu Hàng không. Nhưng Vichya cứ thường quên các bài tập khi bị sét ái tình từ nàng máy bay nhẹ Molnhia (Tia chớp) đánh trúng, mà chàng lại không hề biết nàng chính là trợ tá của người hùng tiêm kích nổi tiếng khắc nghiệt và dữ dằn Grôm (Sấm sét), kẻ cũng đang mong làm gỏi tình địch Vichya. Chàng Vichya có thể chiếm được tình yêu của nàng Molnhia không? Có làm phá sản những tham vọng điên cuồng của Grôm không? Và cái chính là Vichya có thể chiến thắng tại ngày hội Hàng không lớn nhất này hay không?



Code:




Trích:










Quote



Format : Matroska

Format version : Version 2

File size : 4.4 GiB

Duration : 1h 26mn

Overall bit rate : 17.7 Mbps

Encoded date : UTC 2012-09-19 0218

Writing application : mkvmerge v5.8.0 ('No Sleep / Pillow') built on Sep 2 2012 1504

Writing library : libebml v1.2.3 + libmatroska v1.3.0



Video

ID : 2

Format : AVC

Format/Info : Advanced Video Codec

Format profile : High@L4.1

Format settings, CABAC : Yes

Format settings, ReFrames : 2 frames

Muxing mode : Header stripping

Codec ID : V_MPEG4/ISO/AVC

Duration : 1h 26mn

Bit rate : 16.3 Mbps

Width : 1 920 pixels

Height : 1 080 pixels

Display aspect ratio : 16:9

Frame rate mode : Constant

Frame rate : 23.976 fps

Color space : YUV

Chroma subsampling : 40

Bit depth : 8 bits

Scan type : Progressive

Bits/(Pixel*Frame) : 0.328

Stream size : 9.90 GiB (92%)

Writing library : x264 core

Default : Yes

Forced : No

Color primaries : BT.709

Transfer characteristics : BT.709

Matrix coefficients : BT.709



Audio #1

ID : 1

Format : AC-3

Format/Info : Audio Coding 3

Mode extension : CM (complete main)

Format settings, Endianness : Big

Muxing mode : Header stripping

Codec ID : A_AC3

Duration : 1h 26mn

Bit rate mode : Constant

Bit rate : 640 Kbps

Channel(s) : 2 channels

Channel positions : Front: L R

Sampling rate : 48.0 KHz

Bit depth : 16 bits

Compression mode : Lossy

Stream size : 398 MiB (4%)

Title : Tiếng Việt

Language : Vietnamese

Default : Yes

Forced : No



Audio #2

ID : 3

Format : AC-3

Format/Info : Audio Coding 3

Mode extension : CM (complete main)

Format settings, Endianness : Big

Muxing mode : Header stripping

Codec ID : A_AC3

Duration : 1h 26mn

Bit rate mode : Constant

Bit rate : 448 Kbps

Channel(s) : 6 channels

Channel positions : Front: L C R, Side: L R, LFE

Sampling rate : 48.0 KHz

Bit depth : 16 bits

Compression mode : Lossy

Stream size : 279 MiB (3%)

Title : Tiếng Nga

Language : Russian

Default : No

Forced : No

















link 4GB





http://up.4share.vn/f/2b191e1d1a121c....720p.mkv.file








0 comments:

Post a comment