skip to main | skip to sidebar

Monday, 10 September 2012

[4sVN] Gangsters Guns Zombies (2012) 720p BluRay x264-FCUKU




Gangsters Guns Zombies (2012) 720p BluRay x264-FCUKU
Code:

General
Unique ID : 244673053936363503120857307766143553270 (0xB81250ECFB9D2445ABAA7E8AAE6B8EF6)
Complete name : G:\Gangsters Guns Zombies (2012) 720p BluRay x264-FCUKU.mkv
Format : Matroska
Format version : Version 2
File size : 4.37 GiB
Duration : 1h 28mn
Overall bit rate : 7 088 Kbps
Encoded date : UTC 2012-09-07 20:37:26
Writing application : mkvmerge v5.8.0 ('No Sleep / Pillow') built on Sep 2 2012 15:37:04
Writing library : libebml v1.2.3 + libmatroska v1.3.0
Video #1
ID : 1
Format : AVC
Format/Info : Advanced Video Codec
Format profile : High@L4.1
Format settings, CABAC : Yes
Format settings, ReFrames : 5 frames
Muxing mode : Header stripping
Codec ID : V_MPEG4/ISO/AVC
Duration : 1h 28mn
Bit rate : 5 585 Kbps
Width : 1 280 pixels
Height : 544 pixels
Display aspect ratio : 2.35:1
Frame rate : 25.000 fps
Color space : YUV
Chroma subsampling : 4:2:0
Bit depth : 8 bits
Scan type : Progressive
Bits/(Pixel*Frame) : 0.321
Stream size : 3.35 GiB (77%)
Writing library : x264 core 125 r2208 d9d2288
Language : English
Default : Yes
Forced : No
Audio #2
ID : 2
Format : DTS
Format/Info : Digital Theater Systems
Muxing mode : Header stripping
Codec ID : A_DTS
Duration : 1h 28mn
Bit rate mode : Constant
Bit rate : 1 510 Kbps
Channel(s) : 6 channels
Channel positions : Front: L C R, Side: L R, LFE
Sampling rate : 48.0 KHz
Bit depth : 24 bits
Compression mode : Lossy
Stream size : 952 MiB (21%)
Default : Yes
Forced : No



0 comments:

Post a comment